smashleysparklessmashleysparkles
» » Rock Steady Crew - Ready For Battle (Expanded)

Rock Steady Crew - Ready For Battle (Expanded) album mp3


Tracklist Hide Credits

Disc One
CD1-1 Uprock 5:16
CD1-2 Me And Baby Brother
Written-By – War
4:14
CD1-3 She's Fresh 4:05
CD1-4 B-Boys B-Girls 4:50
CD1-5 It's Just Begun
Written-By – G. Thomas*, J. Castor*, J. Pruitt*
4:38
CD1-6 (Hey You) The Rock Steady Crew 5:27
CD1-7 Digital Boogie 5:51
Bonus Tracks - Remixes & Edits
CD1-8 (Hey You) The Rock Steady Crew (7" Edit) 3:49
CD1-9 (Hey You) The Rock Steady Crew (Instrumental) 3:51
CD1-10 Uprock (Extended Version) 6:13
CD1-11 Uprock (7" Edit) 3:41
CD1-12 Uprock (Instrumental) 4:28
CD1-13 She's Fresh (Extended Remix) 5:17
CD1-14 She's Fresh (7" Remix Edit) 3:47
CD1-15 Digital Boogie (Remix) 3:35
Disc Two
DVD - Promotional Videos
DVD2-1 (Hey You) The Rock Steady Crew (7" Edit) 3:49
DVD2-2 Uprock (7" Edit) 3:41

Companies, etc.

  • Phonographic Copyright (p) – Virgin Records Ltd.
  • Phonographic Copyright (p) – Strike Force Entertainment
  • Copyright (c) – Strike Force Entertainment
  • Licensed From – EMI Records Ltd.

Credits

  • Artwork [Artwork Re-Design] – Jim Phelan
  • Producer – B. Soldier* (tracks: CD1-6, CD1-8, CD1-9, DVD2-1), Stephen Hague
  • Written-By – R. Blue* (tracks: CD1-1, CD1-3, CD1-4, CD1-6 to CD1-15, DVD2-1, DVD2-2), B. Soldier* (tracks: CD1-1, CD1-3, CD1-4, CD1-6 to CD1-15, DVD2-1, DVD2-2), S. Hague* (tracks: CD1-1, CD1-3, CD1-4, CD1-6 to CD1-15, DVD2-1, DVD2-2)

Notes

DVD-Video
Regions 1-6, 8
Exempt From Classification

℗ 1983 / 1984 Virgin Records Ltd.
This compilation ℗ & © 2012 Strike Force Entertainment
Licensed courtesy of EMI Records Ltd.

Made in the E.U.

Barcode and Other Identifiers

  • Barcode: 5 013929 843028
  • Matrix / Runout (Disc 1): SFE020DDISC1 01
  • Mastering SID Code (Disc 1): IFPI LY34
  • Mould SID Code (Disc 1): IFPI AEW39
  • Matrix / Runout (Disc 2): SFE020DDISC2 03
  • Mastering SID Code (Disc 2): IFPI LY33
  • Mould SID Code (Disc 2): IFPI AEW38

Other versions

Category Artist Title (Format) Label Category Country Year
206 298, 206 298-620 The Rock Steady Crew Ready For Battle ‎(LP, Album) Virgin, Virgin 206 298, 206 298-620 Europe 1984
RSCMC 1, RSCMC1 The Rock Steady Crew Ready For Battle ‎(Cass, Album) Charisma, Virgin RSCMC 1, RSCMC1 US 1984
RSC LP1 The Rock Steady Crew Ready For Battle ‎(LP, Album) Virgin RSC LP1 Italy 1984
50258 The Rock Steady Crew Ready For Battle ‎(Cass, Album) Virgin 50258 France 1984
406 298, 406 298-652 The Rock Steady Crew Ready For Battle ‎(Cass, Album) Virgin, Virgin 406 298, 406 298-652 Europe 1984


Rock Steady Crew - Ready For Battle (Expanded) album mp3
Performer: Rock Steady Crew
Genre: Electronic / Hip hop
Title: Ready For Battle (Expanded)
Country: Europe
Released: 2012
Style: Electro
MP3 version ZIP size: 1969 mb
FLAC version RAR size: 1394 mb
Rating: 4.8
Votes: 908
Other Formats: MPC XM FLAC AA MMF APE MP2

Iesha
Great dynamic range across all tracks.foobar2000 1.3.17 / Dynamic Range Meter 1.1.1log date: 2019-04-25 13:53:06--------------------------------------------------------------------------------Analyzed: The Rock Steady Crew / Ready For Battle [Expanded Cd + Dvd] [Disc 1]--------------------------------------------------------------------------------DR Peak RMS Duration Track--------------------------------------------------------------------------------DR13 0.00 dB -14.55 dB 5:16 01-UprockDR14 -0.04 dB -15.47 dB 4:14 02-Me And Baby BrotherDR13 -0.07 dB -14.87 dB 4:05 03-She's FreshDR14 0.00 dB -16.47 dB 4:50 04-B-Boys B-GirlsDR13 0.00 dB -14.99 dB 4:39 05-It's Just BegunDR12 0.00 dB -14.35 dB 5:27 06-(Hey You) The Rock Steady CrewDR14 -0.06 dB -15.95 dB 5:51 07-Digital BoogieDR13 0.00 dB -14.79 dB 3:49 08-(Hey You) The Rock Steady Crew (7" Edit)DR14 0.00 dB -16.33 dB 3:51 09-(Hey You) The Rock Steady Crew (Instrumental)DR13 0.00 dB -15.13 dB 6:13 10-Uprock [Extended Version]DR13 0.00 dB -14.36 dB 3:41 11-Uprock [7" Edit]DR13 0.00 dB -14.73 dB 4:28 12-Uprock [Instrumental]DR13 -0.07 dB -15.16 dB 5:17 13-She's Fresh [Extended Remix]DR14 0.00 dB -15.14 dB 3:47 14-She's Fresh [7" Remix Edit]DR13 -0.07 dB -15.03 dB 3:35 15-Digital Boogie [Remix]--------------------------------------------------------------------------------Number of tracks: 15Official DR value: DR13Samplerate: 44100 HzChannels: 2Bitrate: 256 kbpsCodec: MP3================================================================================