smashleysparklessmashleysparkles
» » Sherbet - Sherbet

Sherbet - Sherbet album mp3


Tracklist

(Feels Like It's) Slippin' Away 3:29
Skyline 3:58
Another Night On The Road 3:59
Don't Wait Too Long 3:36
Winnipeg Sidestep 3:38
Take My Heart 3:28
Cheatin' Eyes 4:09
You Made A Fool 3:46
(If I) Breakdown 4:09
Beg, Steal Or Borrow 3:55

Versions

Category Artist Title (Format) Label Category Country Year
L 36617 Sherbet Sherbet ‎(LP, Album, Gat) Sherbet Record Productions L 36617 Australia 1978
D20089 Sherbet Sherbet ‎(CD, Album, RE, RM) Festival Records, Infinity D20089 Australia 1999
Sherbet - Sherbet album mp3
Performer: Sherbet
Genre: Rock
Title: Sherbet
Country: Australia
Released: 1978
Style: Pop Rock
MP3 version ZIP size: 1922 mb
FLAC version RAR size: 1227 mb
Rating: 4.2
Votes: 474
Other Formats: MOD RA MP3 APE DMF XM AA

Steep
foobar2000 1.3.17 / Dynamic Range Meter 1.1.1log date: 2018-06-01 19:49:42--------------------------------------------------------------------------------Analyzed: Sherbet / Sherbet--------------------------------------------------------------------------------DR Peak RMS Duration Track--------------------------------------------------------------------------------DR11 -0.14 dB -14.43 dB 3:32 01-(Feels Like It's) Slippin AwayDR11 -0.60 dB -13.83 dB 3:58 02-SkylineDR11 0.00 dB -13.64 dB 4:10 03-Another Night On The RoadDR12 -0.04 dB -13.73 dB 3:38 04-Don't Wait Too LongDR11 -0.26 dB -12.91 dB 3:38 05-Winnipeg SidestepDR13 -0.36 dB -14.85 dB 3:32 06-Take My HeartDR12 -0.27 dB -14.73 dB 4:10 07-Cheatin' EyesDR12 -0.29 dB -14.61 dB 3:54 08-You Made A FoolDR12 -0.37 dB -15.71 dB 4:13 09-(If I) BreakdownDR12 -0.31 dB -13.75 dB 3:59 10-Beg, Steal or Borrow--------------------------------------------------------------------------------Number of tracks: 10Official DR value: DR12Samplerate: 44100 HzChannels: 2Bits per sample: 16Bitrate: 886 kbpsCodec: ALAC================================================================================